TVB万千星辉贺台庆2014[1080I/TS/12.3G/百度云盘]

定冠词决议性的是由 god7799 于 2014-12-21 18:56 剪辑

国文名 : 万千星辉贺台庆2014
玩总工夫:2小时32分钟
出品公司 : 香港广播的频道股份有限公司 (TVB)
监制:陈旭亮
文字编辑:陈蕙兰
掌管:汪明荃/陈百祥/曾志伟/渡渡鸟
典型:综艺晚会
说闲话:粤语
头衔: 无

[顺序质地]

举行就职典礼古希腊与古罗马的文化研究层出不穷
本年《万千星辉贺台庆》相配“举行就职典礼古希腊与古罗马的文化研究层出不穷”的标语,咱们也要举行就职典礼。,最流传和最热的元素渗入电流,也符合了恢复的高潮。,以康乐棋台湾联欢古希腊与古罗马的文化研究板。,由中段曾志伟和陈百祥友好的队和明星行动。,惊喜是单独惊喜。、行动和竞赛提供饮食及服务观察者的脾胃,抢夺有雅量的奖赏!

  总共48个西洋跳棋盘,死亡决议蹄点的标号。。这两个队关注了大多数人竞赛或行动。,在估计渡渡鸟和汪明荃然后,死亡的等于可以抢夺更多。!你可以走到思惟的起点。,有机会适宜侥幸的三。,超越380万脚步沉重地走的奖赏!

  在度假的工作日里,台湾开始角一同现身!飞虎队II的会员,信徒们的卧底,观察者都很高、警员,乘重航空器、摧毁现场振动了观察者的阳明阴灵神经质的。,确保LAK的队在西洋跳棋盘上走更多的了。另一边厢,曾志伟是女拥人或女下属俱乐部短节目的掌管人经过。,江欣燕和很多M 俱乐部会员面临呼啦圈,不管呼啦圈和攻击:严厉批评或猛烈攻击比面向上进。,但年轻女孩的最好的生机,你不克不及驳回它。!

  极度的高个儿4的英镑仍在持续。,电视连续剧台湾老表,哈喽HEA!国文金曲,以防它缺席的西洋跳棋盘战中,逗留享用大摧毁、“星梦帮”,跟随老表的歌,这无疑是一种上进的阳明阴灵享用。。在《老表,哈喽HEA!》中,蒋志光行动的郑俊红男教师,在如今的正忙于,郑俊弘、许廷铿与巨星和角,它会降低给这人主人吗?这乐谱不要不是在周围奋斗。,以防增加李克勤、田蕊妮分担,漏斗管的火花更热。!

  在单独剧本节上跑有大多数人杰出的的角。,大吵一架,它会产生哪样的火花,台湾和曾志伟还伸出,一定要适宜年度古希腊与古罗马的文化研究!

这段录像磁带缺少删减。,全记录,行动,唱歌短节目,质地很丰足。


因更大的录像磁带,有百度的SkyDrive上翻开方法,因而必要把它放在一同。, 请完全地担待。



[滤器运用列表]
(1) Built-in MPEG2 TS Source
(2) Built-in Video Codec/Transform
(3) Enhanced Video (自定义夸张器 如今)
(4) Built-in Audio Codec/Transform
(5) DirectSound Audio Renderer

[录像磁带通信]
录像磁带编码:H264 – 内置 FFmpeg 解码器(h264)
输入体式:H264(0 位)
输入重大:1920 x 1080()
输入体式:YV12(12 位)
输入重大:1920 x 1080()
帧频:25.00
BitRate: 未知

[音频通信]
音频编码:Dolby AC3(0x2000) – FFmpegMininum.dll(ac3)
抽样率:48000 -> 48000 Hz
位率:0 -> 16 位
声道数:2 -> 2 声道
Bitrate: 192 kbps

General
ID                             : 1 (0x1)
Complete name                  : TVB年年的发奖女:\ 2014 \不计其数的台庆明星2014.ts
Format                         : MPEG-TS
File size                      : 12.3 GiB
Duration                       : 2h 32mn
Overall bit rate mode          : Variable
Overall bit rate               : 11.5 Mbps

Video
ID                             : 851 (0x353)
Menu ID                        : 85 (0x55)
Format                         : AVC
Format/Info                    : Advanced Video Codec
Format profile                 : High@L4.0
Format settings, CABAC         : Yes
Format settings, ReFrames      : 4 frames
Codec ID                       : 27
Duration                       : 2h 32mn
Bit rate                       : 10.4 Mbps
Width                          : 1 920 pixels
Height                         : 1 080 pixels
Display aspect ratio           : 16:9
Frame rate                     : 25.000 fps
Color space                    : YUV
Chroma subsampling             : 4:2:0
Bit depth                      : 8 bits
Scan type                      : MBAFF
Bits/(Pixel*Frame)             : 0.200
Stream size                    : 11.1 GiB (90%)
Color primaries                : BT.709
Transfer characteristics       : BT.709
Matrix coefficients            : BT.709

Audio #1
ID                             : 852 (0x354)
Menu ID                        : 85 (0x55)
Format                         : AC-3
Format/Info                    : Audio Coding 3
Mode extension                 : CM (完成或结束 主)
Format settings, Endianness    : Big
Codec ID                       : 6
Duration                       : 2h 32mn
Bit rate mode                  : Constant
Bit rate                       : 192 Kbps
窄街(S)                    : 2 channels
Channel positions              : Front: L R
Sampling rate                  : 48.0 KHz
Bit depth                      : 16 bits
Compression mode               : Lossy
Delay relative to video        : -892ms
Stream size                    : 210 MiB (2%)

Audio #2
ID                             : 853 (0x355)
Menu ID                        : 85 (0x55)
Format                         : AC-3
Format/Info                    : Audio Coding 3
Mode extension                 : CM (完成或结束 主)
Format settings, Endianness    : Big
Codec ID                       : 6
Duration                       : 2h 32mn
Bit rate mode                  : Constant
Bit rate                       : 384 Kbps
窄街(S)                    : 6 channels
Channel positions              : Front: L C R, Side: L R, LFE
Sampling rate                  : 48.0 KHz
Bit depth                      : 16 bits
Compression mode               : Lossy
Delay relative to video        : -931ms
Stream size                    : 420 MiB (3%)

Text #1
ID                             : 855 (0x357)
Menu ID                        : 85 (0x55)
Format                         : DVB Subtitle
Codec ID                       : 6
Delay relative to video        : -1h 3mn
Language                       : Chinese

Text #2
ID                             : 856 (0x358)
Menu ID                        : 85 (0x55)
Format                         : DVB Subtitle
Codec ID                       : 6
Delay relative to video        : -1h 3mn
Language                       : English

Text #3
ID                             : 857 (0x359)
Menu ID                        : 85 (0x55)
Format                         : DVB Subtitle
Codec ID                       : 6
Delay relative to video        : -1h 3mn
Language                       : chs


发表评论

电子邮件地址不会被公开。 必填项已用*标注